<?xml version="1.0" standalone="no"?> <!DOCTYPE svg PUBLIC "-//W3C//DTD SVG 1.0//EN" "http://www.w3.org/TR/2001/REC-SVG-20010904/DTD/svg10.dtd" > <svg xmlns="http://www.w3.org/2000/svg" width="100%" height="100%">
<defs >
<font id="MathJax_Fraktur-Regular" horiz-adv-x="410" ><font-face
    font-family="MathJax_Fraktur"
    units-per-em="1000"
    panose-1="0 0 0 0 0 0 0 0 0 0"
    ascent="1007"
    descent="-424"
    alphabetic="0" />
<missing-glyph horiz-adv-x="250" d="M50 0V533H200V0H50ZM100 50H150V483H100V50Z" />
<glyph unicode=" " glyph-name="space" horiz-adv-x="250" />
<glyph unicode="!" glyph-name="exclam" horiz-adv-x="296" d="M102 620Q102 657 112 673T152 689Q190 689 190 638Q190 614 187 583Q185 561 167 373L148 187L133 184Q132 185 118 382T103 599Q103 603 103 610T102 620ZM91 48Q91 71 107 87T148 104Q171 104
187 88T204 48Q204 23 188 6T149 -12Q125 -12 108 6T91 48Z" />
<glyph unicode="&quot;" glyph-name="quotedbl" horiz-adv-x="215" d="M33 436Q27 464 18 543T8 648Q8 672 12 680T33 694Q34 694 37 694T43 695Q63 695 74 681Q76 678 76 650V623L66 532Q57 443 55 436V432H33V436ZM128 666Q128 691 162 691T196 668Q196 634
186 531Q176 441 176 432H166Q155 432 155 434L142 545Q139 571 136 601T130 646T128 666Z" />
<glyph unicode="&amp;" glyph-name="ampersand" horiz-adv-x="738" d="M208 397Q181 456 181 520Q181 589 218 637T313 695Q325 697 328 697L330 698Q333 698 335 698Q336 698 340 698T346 697Q391 697 418 670T446 604Q446 554 414 511Q384 467 300 417L283 406Q278
404 317 337Q365 251 425 182Q466 135 469 135Q470 135 473 140T480 152T486 165Q509 210 509 263Q509 282 507 292Q498 317 488 331Q473 349 460 355T418 361Q388 361 357 358L346 356L347 374Q347 394 348 396V399H355Q357 399 365 399T388 398T414 397Q423 397
465 397T535 396Q663 396 689 398L703 399Q703 398 702 375T700 351L688 353Q655 356 601 357Q553 357 553 355Q562 332 562 294Q562 254 542 204T494 122L489 115L496 107Q537 66 576 56Q582 54 596 54Q616 54 628 59Q677 75 700 148Q710 180 710 187Q710 188
710 188L711 190Q713 190 723 187T733 183Q733 169 723 135Q704 68 666 29Q631 -11 569 -11Q545 -11 537 -9Q487 2 443 41L434 49L425 42Q348 -9 275 -9Q164 -9 107 51Q49 112 49 195Q49 279 113 332Q144 359 197 390L208 397ZM374 577Q374 606 356 628T311 651Q289
651 271 636Q242 614 242 559Q242 518 255 478Q267 435 270 435Q271 435 279 440T298 453T314 464Q347 486 359 512Q374 542 374 577ZM127 217Q127 144 173 88T291 32Q331 32 375 54Q409 71 409 75Q387 97 337 167Q266 270 227 351Q221 366 220 366Q215 366 178
338Q127 299 127 217Z" />
<glyph unicode="&apos;" glyph-name="quotesingle" horiz-adv-x="212" d="M69 666Q69 695 104 695Q134 695 134 659Q134 645 121 548T104 438Q104 436 96 436T88 438Q88 447 79 540T69 655V666Z" />
<glyph unicode="(" glyph-name="parenleft" horiz-adv-x="389" d="M293 737V719Q252 690 241 674Q178 590 166 366Q164 324 164 282Q164 214 168 144Q180 -57 230 -119Q251 -145 266 -156Q283 -171 292 -171Q293 -171 293 -179V-186H289Q270 -180 259 -175Q225
-158 197 -125T154 -53Q114 55 114 275Q114 346 115 360Q130 601 210 686Q241 720 293 737Z" />
<glyph unicode=")" glyph-name="parenright" horiz-adv-x="389" d="M89 -187V-170L101 -165Q154 -144 176 -105Q212 -44 221 144Q223 188 223 259Q223 443 194 558Q164 673 96 710L89 714V735Q123 724 139 713Q219 660 253 511Q273 421 276 290V273Q276 98 246
-23Q227 -99 191 -136T89 -187Z" />
<glyph unicode="*" glyph-name="asterisk" horiz-adv-x="278" d="M125 687V692H151V689V687Q151 685 151 683T150 678T150 672Q145 628 144 605V592L219 652Q219 651 222 647T229 638L232 633Q229 630 220 624Q195 610 155 582L146 575L158 567Q177 553 216 527L233
516Q234 515 227 506T217 495L152 549L143 555V530Q145 484 148 461Q150 453 149 451T142 449H125V462Q128 522 128 549V562L115 552Q88 531 59 506L45 495Q44 495 39 505T34 516L118 573Q118 575 92 592T49 619Q34 628 34 629L50 647L55 652L66 642Q76 633 91
620T117 598L128 590Q128 663 125 687Z" />
<glyph unicode="+" glyph-name="plus" horiz-adv-x="756" d="M357 584L399 598V282H709L702 263L696 243H399V-64L379 -73L358 -82Q357 -82 357 81V243H47L51 253Q52 256 54 263T58 272L62 282H357V584Z" />
<glyph unicode="," glyph-name="comma" horiz-adv-x="278" d="M99 62Q99 93 134 105Q142 107 144 107Q148 107 156 103Q165 97 181 72T205 26T213 -23Q213 -44 211 -51Q205 -75 181 -113Q128 -189 122 -191Q121 -191 116 -184T111 -174Q111 -171 117 -163Q130
-143 139 -122Q156 -87 156 -62Q156 -44 152 -34T127 4L104 37Q99 49 99 62Z" />
<glyph unicode="-" glyph-name="hyphen" horiz-adv-x="756" d="M62 274Q62 275 384 275H706L699 255L693 236H46Q55 258 56 259Q57 262 58 265T61 272L62 274Z" />
<glyph unicode="." glyph-name="period" horiz-adv-x="278" d="M87 43Q87 69 102 85T142 102T183 85T200 44T183 3T141 -15Q119 -15 103 3T87 43Z" />
<glyph unicode="/" glyph-name="slash" horiz-adv-x="502" d="M230 270Q426 721 428 721Q437 719 447 717L466 713L448 672Q78 -180 77 -181Q77 -182 55 -182L34 -181L230 270Z" />
<glyph unicode="0" glyph-name="zero" horiz-adv-x="502" d="M246 485Q259 492 262 492T278 487Q341 463 389 413T452 300Q456 281 456 258Q456 204 429 150Q396 80 327 29Q270 -13 212 -13Q183 -13 153 -1Q102 18 72 70T42 195Q42 230 49 258Q67 334 132 396Q187
450 246 485ZM119 250Q119 173 157 116T263 59Q296 59 322 75Q381 111 381 209Q381 287 335 346Q295 393 238 409Q235 410 233 410T229 411T226 412T223 413Q218 413 201 401Q168 378 157 368T137 341Q119 306 119 250Z" />
<glyph unicode="1" glyph-name="one" horiz-adv-x="502" d="M450 -1Q409 2 281 6Q207 6 117 2Q74 -1 56 -1L47 -2V43H121Q196 43 198 44Q208 47 209 56Q212 69 212 214Q212 333 209 365T194 409Q179 421 148 426Q118 432 104 432Q103 432 103 446V459H123Q146
459 224 462Q233 462 250 463T280 466T295 467T296 467T297 468Q300 468 309 459Q306 453 303 408Q297 336 297 235Q297 83 301 59Q303 49 313 44Q316 43 367 43Q386 43 416 44T460 46Q460 35 459 22V-1H450Z" />
<glyph unicode="2" glyph-name="two" horiz-adv-x="502" d="M114 367L104 384Q104 388 141 414Q209 465 265 473Q270 474 281 474Q323 474 353 446T385 378Q385 356 378 338Q349 251 196 95Q176 73 176 72Q176 67 183 65Q184 65 203 65T260 67T331 69L475 73L484
67Q484 64 472 33L460 1H60V17L107 61Q201 150 237 193Q272 235 289 268Q309 303 309 331Q309 365 284 390T228 415Q209 415 171 398T114 367Z" />
<glyph unicode="3" glyph-name="three" horiz-adv-x="502" d="M305 328Q305 371 279 396T214 421H211Q197 421 189 419Q151 404 128 384L107 398L116 405Q181 462 239 471Q249 473 251 473H260Q312 473 340 455T382 394Q384 386 384 367Q384 308 342 269Q309 236
271 217L256 210L257 206L259 202L265 201Q401 198 427 75Q429 64 429 41Q429 17 427 8Q412 -74 343 -128T183 -182L88 -164Q81 -162 69 -157T48 -147T39 -141Q39 -139 46 -127L53 -114L69 -122Q129 -149 171 -149Q243 -149 284 -108Q338 -52 338 29Q338 75 321
108T273 153Q228 171 162 171Q158 171 152 171T142 170H127V204H134Q232 214 275 257Q296 281 303 305Q305 311 305 328Z" />
<glyph unicode="4" glyph-name="four" horiz-adv-x="502" d="M311 -191L299 -179Q302 -171 304 -114Q304 -110 304 -100T305 -74T306 -48V0H11V7Q10 10 10 18Q10 23 154 236L298 449Q298 450 339 463L379 476Q384 471 384 470V466Q384 463 384 457T384 444T383
427T383 408Q381 328 381 248Q381 46 384 40H387Q422 40 460 44Q465 44 470 44T478 44L481 45Q481 43 478 24T473 1Q473 -1 464 -1Q462 -1 451 -1T430 0H387V-76L389 -156V-161L311 -191ZM299 364H287L277 352Q199 253 122 120Q87 62 79 43Q79 42 192 42H306V115Q306
300 299 359V364Z" />
<glyph unicode="5" glyph-name="five" horiz-adv-x="502" d="M334 25Q334 90 301 129T207 169Q154 169 107 123L98 114L89 120L80 125V458H420Q420 456 409 418L397 379Q397 378 264 378H131Q124 373 122 370Q121 369 121 279V190L130 186L140 190Q196 214 260
214Q330 214 375 182Q440 128 440 42Q440 -51 376 -112Q299 -184 163 -184Q112 -184 57 -163L47 -159L53 -147L58 -134H60Q62 -135 65 -136T72 -138Q117 -153 156 -153Q244 -153 292 -95Q334 -44 334 25Z" />
<glyph unicode="6" glyph-name="six" horiz-adv-x="502" d="M318 376Q387 376 429 329T471 213Q471 182 461 153Q447 110 415 73T341 13Q292 -13 237 -13Q208 -13 176 -3Q113 18 79 83T45 240Q45 442 176 573Q274 676 388 698Q392 699 399 699Q400 699 404 699T411
700Q422 700 440 697T459 689Q459 671 451 637Q451 633 447 632L444 629L434 633Q413 640 384 640Q362 640 355 639Q316 631 273 605T202 544Q129 456 129 315V306H136L149 315Q207 360 271 372Q291 376 318 376ZM266 32Q326 32 358 70T391 172Q391 217 365 257Q325
314 258 314Q228 314 191 299T133 262L134 249Q145 131 183 76Q216 32 266 32Z" />
<glyph unicode="7" glyph-name="seven" horiz-adv-x="502" d="M395 377L391 382H225Q59 382 59 383L74 423Q89 464 89 465Q90 468 94 468Q124 463 185 460Q187 460 350 458H498V442L473 406Q241 75 125 -156L113 -181H40L37 -168L57 -140Q160 5 296 220Q395 374 395 377Z" />
<glyph unicode="8" glyph-name="eight" horiz-adv-x="502" d="M238 698L254 705L262 704Q283 704 313 697Q374 684 402 656Q434 619 434 568Q434 549 433 543Q415 463 321 402L305 391L336 368Q405 319 423 298Q461 254 461 195Q461 111 396 54Q335 4 256 -8Q240
-10 220 -10Q101 -10 57 78Q40 117 40 157Q40 223 77 266Q109 301 186 346Q206 358 225 375Q247 393 247 394L206 361Q204 359 183 375T148 407Q103 452 92 503Q90 511 90 531Q90 580 114 615Q146 660 238 698ZM350 545Q350 636 254 651Q244 653 234 653L224 654L204
639Q186 626 180 620T168 597Q165 585 165 567Q165 550 168 540Q183 483 261 424L273 415Q325 451 342 500Q350 522 350 545ZM261 405L263 407Q262 407 261 405ZM258 403Q257 403 255 401L254 399L256 400Q258 402 258 403ZM252 398Q251 398 249 396L248 394L250
395Q252 397 252 398ZM267 313L235 332L227 327Q171 297 148 265Q123 231 123 177Q123 137 139 103T180 53Q208 36 245 36Q328 36 358 98Q374 130 374 168Q374 209 341 255Q316 285 267 313Z" />
<glyph unicode="9" glyph-name="nine" horiz-adv-x="502" d="M357 92Q353 93 352 93Q348 93 324 81Q266 53 219 38Q207 34 201 34Q196 34 181 37Q118 46 87 79Q28 138 28 234Q28 294 47 333Q64 369 99 395T218 462L234 469H243Q348 461 395 417Q466 348 466 201Q466
100 422 14Q333 -170 91 -182H72V-154H80Q290 -154 346 44Q357 88 357 92ZM249 95Q307 95 338 123T369 208Q369 289 335 345T241 413Q227 415 214 415Q211 415 206 415T199 414Q159 403 138 362T116 266Q116 208 143 161T211 100Q225 95 238 95H249Z" />
<glyph unicode=":" glyph-name="colon" horiz-adv-x="216" d="M50 400Q50 422 63 439T99 457Q127 457 146 440T165 399T146 359T102 342Q79 342 65 358T50 400ZM53 43Q53 68 66 86T103 105Q131 105 149 86T168 41Q168 19 148 4T102 -12Q81 -12 67 4T53 43Z" />
<glyph unicode=";" glyph-name="semicolon" horiz-adv-x="216" d="M47 375T47 399T62 440T101 458Q126 458 144 441T162 400Q162 375 144 359T101 343Q78 343 63 359ZM76 86Q76 90 86 94T106 99Q119 99 131 86Q164 51 175 7Q179 -5 179 -25Q179 -36 178 -40Q171
-80 130 -138Q93 -185 89 -189Q86 -186 80 -183T75 -178T80 -168Q92 -150 103 -128Q121 -91 121 -64Q121 -45 91 -1Q69 34 69 35Q66 41 66 52Q66 69 73 78Q73 79 74 82T76 86Z" />
<glyph unicode="=" glyph-name="equal" horiz-adv-x="756" d="M725 366Q724 365 720 348L716 331V329H385Q54 329 54 331Q55 332 59 349T63 368H394Q725 368 725 366ZM725 169Q724 168 720 151L716 134V132H385Q54 132 54 134Q55 135 59 152T63 171H394Q725 171 725 169Z" />
<glyph unicode="?" glyph-name="question" horiz-adv-x="362" d="M79 490Q46 514 46 557Q46 581 58 602Q77 640 124 666T227 693Q288 693 322 659T357 564Q357 546 356 540Q347 495 310 445Q283 409 236 368Q199 337 177 310Q160 287 160 272Q160 240 187 221Q193
217 193 216Q182 209 170 200L147 184Q98 204 98 250Q98 258 99 261Q105 281 132 313Q155 341 193 376Q243 418 266 462Q287 502 287 542T267 611T213 650Q204 652 188 652Q152 652 130 634T108 588Q108 559 140 527L79 490ZM108 47Q108 69 123 86T160 103Q184
103 200 88T217 46Q215 24 201 7T164 -11Q143 -11 126 5T108 47Z" />
<glyph unicode="A" glyph-name="A" horiz-adv-x="718" d="M280 685Q363 685 405 639T447 504Q444 414 405 330L399 319L229 155L237 153Q263 150 291 128Q291 127 304 115T328 93L357 64L402 92Q438 116 473 137L500 154V339Q500 528 495 593V601L559 649Q621
696 624 696L638 686L629 677Q600 651 593 638T584 594Q581 550 580 443Q580 314 584 238Q585 184 589 171Q597 145 613 111T642 76Q647 76 654 78T669 85T681 91Q687 93 703 101L707 84L636 29Q618 15 601 2T574 -19T564 -25L500 121Q499 121 399 48L299 -26Q297
-26 292 -17Q245 60 189 77Q177 80 165 80Q120 80 58 43L48 37L40 42L32 48L122 117Q196 173 241 211Q307 269 333 309Q368 362 368 447Q368 535 317 582Q263 633 199 633Q157 633 123 605T86 542Q86 528 95 514Q106 497 129 472Q181 419 181 387Q181 348 140 309Q113
281 73 260L64 255L50 265L59 273Q112 307 112 345Q112 353 109 359Q102 377 69 411Q40 440 30 466Q22 487 22 505Q22 553 75 607Q158 685 271 685H280Z" />
<glyph unicode="B" glyph-name="B" horiz-adv-x="884" d="M815 516Q819 497 820 496Q820 494 808 490T774 476T732 454Q720 445 708 437L675 415L640 394L625 383Q626 382 635 382Q675 382 713 363T772 315Q797 277 797 220Q797 170 776 122Q769 106 766 102T745
84Q634 -5 597 -18Q570 -27 538 -27Q505 -27 469 -18Q463 -16 376 15T249 47Q199 47 130 6Q126 4 122 1T114 -4L112 -5Q111 -5 104 7T97 21L196 82Q259 120 284 140Q333 181 351 214Q368 251 368 353Q368 419 357 471Q345 532 312 570T228 620Q222 621 205 621Q160
621 139 596Q117 569 117 548Q117 538 125 522Q139 498 162 471Q190 436 201 415Q208 400 208 387Q208 349 169 310Q143 284 104 264Q86 256 85 256Q83 256 70 266L82 274Q125 301 133 335Q136 347 130 359Q116 380 102 398Q60 453 53 476Q48 493 48 506Q48 531
62 559Q74 586 109 619Q178 680 243 689Q259 691 268 691Q361 691 425 594L431 585L441 594Q490 640 540 663Q586 686 629 686Q665 686 687 670Q703 658 719 581Q730 525 743 513Q751 505 763 505Q778 505 804 512L815 516ZM453 528Q457 487 457 419L458 357L488
367Q554 390 622 425Q673 449 673 453Q673 455 666 467T651 499T639 541Q629 595 621 607Q615 618 599 625T567 633Q536 633 493 599Q471 577 457 540L453 528ZM713 176Q713 253 662 296T528 339Q498 339 481 334Q455 328 455 325Q454 325 452 311T444 270T425
217L420 207L304 118L319 116Q357 113 393 103Q422 95 495 66Q551 44 585 38Q591 37 602 37Q654 37 683 78T713 176Z" />
<glyph unicode="C" glyph-name="C" horiz-adv-x="613" d="M269 564Q204 558 172 500T139 358Q139 224 209 144T403 48Q425 46 443 46Q448 46 457 46T470 47L485 48L601 106Q602 106 602 93V80Q490 10 462 -13Q460 -15 443 -19Q409 -24 367 -24Q360 -24 351 -24T335
-23T326 -22Q197 -3 128 84T59 319V328Q62 412 96 487L101 500L118 512Q189 563 245 591L266 601L299 585Q330 608 374 629Q417 651 497 682Q503 685 505 685Q506 685 513 662T531 613T548 580Q553 576 563 576Q575 576 605 585Q607 585 607 575V564Q544 533 496
527Q460 552 420 621Q416 627 415 627Q410 627 398 618T382 603Q373 588 373 558T387 473Q400 424 400 399Q400 337 366 303Q319 259 238 244Q236 244 233 244T228 242H226L214 257Q214 258 223 260T251 272T287 299Q304 316 304 360Q304 396 286 462Q274 506 274
532Q274 553 277 561V564H269Z" />
<glyph unicode="D" glyph-name="D" horiz-adv-x="832" d="M115 603Q197 685 365 685Q423 685 434 684Q745 653 745 405Q745 281 694 151L687 133L657 103Q603 50 568 23Q506 -27 470 -27Q449 -27 381 0Q307 30 227 51Q180 64 157 64Q122 64 84 28Q67 9 57 -6L50
-16L43 -8L35 0Q35 7 58 41Q106 106 135 128L141 133H154Q208 135 248 158T297 215Q299 225 299 230Q299 248 291 265T276 293T252 322Q219 363 212 375Q209 382 209 392Q209 408 217 427Q252 501 358 556L368 561L374 558Q379 554 381 552T381 549L371 541Q349
525 324 495T298 444Q298 443 298 441T299 438Q304 421 340 369Q380 312 388 287Q389 284 389 277Q389 253 371 224Q336 174 267 136L252 127Q310 116 401 82Q494 47 513 47Q540 47 573 71Q612 102 635 145Q671 208 671 323Q671 541 464 597Q411 611 346 611Q208
611 132 545Q64 488 49 372L48 367L37 372L27 378V393Q33 524 115 603Z" />
<glyph unicode="E" glyph-name="E" horiz-adv-x="663" d="M537 312Q535 312 504 335T463 358Q452 358 440 353T425 337Q395 244 263 223L251 221L243 229L235 236L245 239Q274 247 303 266Q320 277 325 290T330 336Q330 400 310 471Q300 506 300 531Q300 549 303
561Q303 564 301 564Q274 564 250 551Q210 531 188 479T165 361Q165 198 266 114Q353 46 474 46Q491 46 499 47L511 48L628 106V80L499 -5Q487 -14 483 -16T461 -20Q429 -24 392 -24Q222 -20 142 100Q86 182 86 315Q86 408 124 491Q128 500 139 508Q211 560 272
591L293 601L325 585L338 594Q404 637 504 674Q530 685 532 685Q533 685 540 663T557 614T574 581Q580 575 591 575Q604 575 623 582Q632 585 634 585V564L623 559Q572 535 532 529L522 527Q493 548 452 611L442 627Q442 628 440 627T435 624T428 620Q410 610 405
598T399 559T409 487Q420 430 427 369L476 400Q526 431 526 432Q531 426 537 420Q565 382 602 359Q611 353 610 352Q609 351 575 332T537 312Z" />
<glyph unicode="F" glyph-name="F" horiz-adv-x="611" d="M542 332Q542 329 522 301T499 273L497 276Q495 279 491 285T481 297Q466 313 449 313Q440 313 433 310Q416 302 381 274L378 271L394 250Q444 183 470 129Q484 96 484 71Q484 5 443 -45T339 -126Q281
-153 223 -153Q193 -153 176 -146T137 -120Q103 -89 103 -8Q103 8 106 42T109 96Q109 119 107 131T97 152T72 161Q47 161 16 143L14 154L11 165Q15 167 32 178T58 193Q87 208 113 214Q133 219 143 219Q162 219 174 201Q192 175 192 127Q192 108 186 65T179 4Q179
-72 229 -103Q249 -117 272 -117Q319 -117 361 -75Q405 -31 405 33Q405 58 388 95Q364 143 314 214Q269 278 251 316Q235 347 235 368Q235 399 264 439Q305 493 373 536L382 543Q382 545 350 563T272 599T198 617Q182 617 161 609Q139 599 123 580T99 542T85 504T77
474L75 463Q74 463 67 468T59 474Q59 498 71 541Q91 606 136 646T253 686Q272 686 295 680Q324 673 378 648T468 598Q498 580 524 580Q529 580 537 582Q557 588 595 626L612 643V616L599 599Q520 500 482 500Q462 500 435 514L420 521Q380 515 345 484T309 415Q309
387 340 334Q364 294 367 294Q367 293 375 301T398 322T429 352L490 410Q517 377 523 368Q539 348 542 332Z" />
<glyph unicode="G" glyph-name="G" horiz-adv-x="785" d="M373 560Q373 539 382 480T394 421Q399 421 465 467Q489 485 548 537L538 543Q481 571 452 628L487 659Q521 690 522 690L523 688Q524 687 524 686T526 683Q554 626 607 608Q617 606 621 606Q644 606 660
622Q665 601 664 600L497 455Q495 453 527 453H546Q624 453 666 406Q710 357 710 294Q705 193 631 109L621 98L577 69Q497 15 479 1Q444 -26 370 -26Q341 -26 333 -25Q205 -9 136 80T66 319Q66 441 113 505L191 552Q269 600 270 600H271Q273 600 280 596T293 589T299
586Q300 586 357 623Q413 659 415 659L426 649Q373 604 373 560ZM287 567Q287 569 286 569Q280 567 273 565Q217 550 191 520Q144 464 144 362V355Q149 204 235 122Q301 58 387 44Q403 42 420 42Q522 42 579 118Q622 179 622 255Q622 293 612 315T578 357Q526 400
453 400Q434 400 410 396L399 394L400 378V372Q400 304 366 270T265 219Q239 213 234 213L226 220L219 228Q221 229 224 230Q247 236 270 257T300 298Q305 312 305 329V343Q305 383 296 423Q282 484 282 519Q282 545 284 554Q286 566 287 567Z" />
<glyph unicode="H" glyph-name="H" horiz-adv-x="720" d="M11 -16L1 0L2 2Q4 4 7 7T12 13Q79 88 111 99Q118 101 128 101Q160 99 195 66L203 59L211 67Q239 95 239 133Q239 148 237 154Q231 176 204 226Q155 315 132 381Q123 408 123 430Q123 475 174 538Q221
595 304 655Q319 666 320 666Q377 609 440 606Q452 606 457 607Q470 612 519 647L542 664Q543 664 543 654V643L522 622Q434 537 403 537Q368 537 294 569Q280 576 270 580L261 585L253 574Q219 533 208 493Q206 483 206 475Q206 460 209 447Q216 418 230 386Q253
333 255 331L273 347Q334 405 421 459L437 468H453Q545 463 608 421L618 415L623 392Q644 307 644 233Q644 97 612 9Q604 -10 601 -15T581 -35Q505 -104 467 -124Q446 -133 431 -133Q407 -132 387 -121Q383 -119 379 -116T371 -111T368 -107T392 -75L415 -43Q424
-56 429 -61T446 -73T472 -79Q483 -79 490 -76Q538 -52 551 46Q558 97 558 180Q558 232 557 245Q544 351 498 383Q467 404 424 404Q406 404 387 398Q326 376 276 295Q272 288 273 285Q300 216 300 168Q300 162 300 158T300 150T299 143T297 137T295 132T292 127T288
122T283 115T277 107Q212 23 178 -13L166 -26L149 -9Q126 14 106 25Q92 32 81 32Q77 32 71 30Q54 23 21 -7L11 -16Z" />
<glyph unicode="I" glyph-name="I" horiz-adv-x="554" d="M522 670Q532 655 532 654Q471 593 390 550L378 543L343 556Q223 601 190 601Q180 601 174 600Q122 592 84 534Q73 519 53 476Q49 463 48 463Q44 465 39 468L30 473L35 488Q78 607 114 645Q153 686 211
686Q253 686 342 645Q399 618 417 617Q435 617 457 628Q488 644 517 667L522 670ZM43 -16Q43 -15 42 -12T40 -6T38 0L48 13Q76 50 123 97L150 125Q154 130 159 130Q167 130 179 92Q187 62 193 53Q213 22 261 22Q276 22 282 24Q317 34 344 68Q378 113 378 208Q378
253 368 327Q360 413 360 424Q360 430 360 439T361 451L362 462Q412 523 482 571L495 580L503 577L511 575L499 562Q442 503 442 465Q442 430 450 382Q462 300 462 246Q462 176 445 134T385 56Q307 -13 222 -25Q217 -26 195 -26Q176 -26 170 -24Q138 -15 104 14L96
21L43 -16Z" />
<glyph unicode="J" glyph-name="J" horiz-adv-x="552" d="M165 665Q195 686 222 686Q245 686 271 671Q298 657 342 622Q365 602 389 589Q410 580 422 580Q426 580 440 582Q463 584 505 604Q509 606 513 608T520 611L522 612V591L487 574Q397 529 373 520Q363 516
357 517Q328 523 282 559Q234 596 204 600Q202 600 199 600T194 601Q161 601 130 572T76 505L69 495Q56 503 56 507Q56 512 60 521Q86 582 121 623Q143 649 165 665ZM-4 64L-10 80Q12 102 52 123T118 144Q158 144 172 118Q180 103 181 53Q183 -5 190 -34T220 -79Q245
-96 278 -96Q328 -96 355 -60T383 39Q383 91 358 196Q341 264 336 292Q329 338 329 361Q329 364 329 370T330 378L331 388L339 399Q390 466 462 526Q467 531 469 531Q470 531 477 527T484 521L474 509Q425 451 413 405Q411 398 411 379Q411 341 434 223T458 82Q458
0 388 -70Q319 -139 239 -139Q146 -139 120 -79Q112 -58 106 -14Q97 54 85 67Q72 80 52 80Q28 80 -4 64Z" />
<glyph unicode="K" glyph-name="K" horiz-adv-x="668" d="M80 106Q94 73 110 55T154 37Q219 41 219 142Q219 174 216 198T208 238T188 305Q160 400 160 434Q160 443 165 454Q190 516 240 574Q268 604 285 617Q351 671 443 680H460Q498 680 506 679Q586 665 618
617V599Q618 574 614 549Q607 509 602 501Q596 495 587 495Q586 495 586 499Q586 500 586 505T585 513Q576 570 532 599T415 628Q334 628 289 586T244 466Q244 415 258 377L261 367L276 382Q323 431 370 462T452 499Q458 500 468 500Q503 500 519 477T547 407Q552
386 566 372T601 357Q612 357 623 361Q623 360 621 351T617 340L541 305L465 272Q500 261 502 260L512 255L519 242Q534 207 551 136Q559 97 573 75T617 53Q650 53 682 74V54L675 46Q638 9 605 -9Q575 -27 554 -27Q542 -27 532 -21Q505 -4 491 36Q483 54 478 91Q467
161 455 187T418 222Q402 228 378 228Q338 228 289 207L288 196Q288 160 284 138Q283 125 262 98Q238 68 219 49Q165 -6 112 -24L102 -27L91 -25Q48 -14 17 31Q17 33 49 69L80 106ZM421 434Q411 436 405 436Q393 436 378 431Q322 411 275 337L267 325L271 313Q280
283 285 252Q288 237 288 234Q289 234 395 276T502 319Q501 321 499 323Q486 336 475 371Q473 376 470 384L467 391Q453 420 434 430Q426 434 421 434Z" />
<glyph unicode="L" glyph-name="L" horiz-adv-x="666" d="M475 461Q475 472 477 502T480 546Q480 600 454 619Q426 638 379 638Q322 638 283 606T239 526Q237 480 280 394Q319 310 320 268V250Q296 222 244 169L203 128H210Q216 128 238 120Q362 71 441 65Q444
65 452 65T466 64Q522 64 554 81T607 140Q617 158 625 186L629 196Q643 187 644 186Q642 177 640 165Q620 66 595 24Q564 -26 476 -26Q458 -26 436 -24Q355 -13 228 39Q219 42 204 49T179 59T157 66T133 69Q124 69 116 65Q94 54 57 -7L49 -20L45 -16Q41 -11 37
-6T33 0Q33 4 57 54Q75 90 92 114Q106 133 111 134Q228 153 247 208Q251 219 251 231Q251 254 212 328Q160 425 160 468Q160 529 238 605Q313 677 425 685L432 686Q440 686 445 686Q510 686 540 662T571 576Q571 539 564 488V480Q564 468 570 462T583 454T608 452H623V431L619
430Q618 430 611 428T591 423T566 417L516 404Q497 415 492 418T481 433T475 461Z" />
<glyph unicode="M" glyph-name="M" horiz-adv-x="1050" d="M37 -16L27 0L33 10Q57 47 83 72Q110 99 133 105Q136 106 143 106Q178 106 225 62L235 53Q283 83 307 117Q352 187 352 359Q352 514 284 584Q245 621 183 621Q146 621 120 598Q97 574 96 556Q96 542 104
525Q117 500 152 458Q177 428 189 397Q191 390 191 377Q191 358 184 344Q165 306 111 268Q76 245 70 245Q69 245 59 252T49 260Q53 263 59 266Q107 292 117 329Q118 332 118 338Q118 358 81 403Q47 448 34 473Q27 489 27 506Q30 556 83 609Q148 676 235 685Q242
686 255 686Q320 686 371 644Q403 616 417 579L421 571L430 580Q479 640 557 657Q564 659 588 659Q631 659 650 637Q660 627 669 612T683 588L687 578Q688 582 714 608Q727 620 762 645Q819 684 859 690Q871 692 877 692Q904 692 923 673Q937 659 954 610Q963 581
973 570Q983 561 1000 560Q1023 560 1048 569V553L1034 546Q985 519 947 483Q936 472 933 466Q905 402 905 264Q905 192 910 160T940 91Q951 74 959 74Q970 74 1014 94Q1017 95 1020 96T1025 99L1027 100V79L956 27Q940 15 922 2T894 -19L885 -26Q883 -26 854 27L825
80V192Q826 314 830 341Q831 345 833 356Q840 398 844 404Q874 446 920 489Q919 490 917 491Q903 498 898 508Q893 517 880 554Q861 608 852 616Q840 628 818 628Q788 628 758 608Q725 582 702 541L697 532L700 515Q708 467 708 419Q705 304 667 188Q649 136 643
126L634 116Q626 105 611 87T581 51L522 -22L514 -15Q483 11 466 18Q454 24 439 18Q419 9 394 -16L384 5L386 9L426 60Q456 94 471 102Q480 105 497 103Q514 99 541 81L559 69Q594 96 606 167T618 350Q618 489 598 544Q579 601 517 601Q498 601 481 589Q453 571
437 537Q431 525 432 522Q436 498 436 443Q436 251 369 133L363 122L280 50Q198 -24 192 -27L182 -18Q142 20 116 25Q113 26 106 26Q100 26 94 25T82 21T72 15T62 8T53 1T45 -8T37 -16Z" />
<glyph unicode="N" glyph-name="N" horiz-adv-x="832" d="M627 107Q627 132 626 191T624 285Q624 381 632 398Q638 408 663 438T705 486L707 489H696Q680 490 675 495Q666 505 653 551Q636 608 609 622Q598 628 584 628Q549 628 513 598Q478 567 445 497Q436 478
437 475Q446 437 446 348Q446 203 405 124Q396 105 392 100T368 78Q260 -12 230 -20Q220 -22 214 -22Q186 -22 159 -4Q154 -2 142 10T129 25Q129 27 160 66T192 105Q192 103 195 97Q213 42 261 42Q279 42 298 53Q337 77 352 115T372 228Q372 232 372 245T373 268Q373
476 295 572Q268 604 235 618Q215 628 191 628Q176 628 161 623Q136 616 117 595T97 548Q97 537 100 529Q109 504 144 462Q192 405 192 381Q192 377 190 367Q184 339 162 316T86 260L70 250L54 266L63 272Q112 301 112 334Q112 358 73 406Q52 432 37 458Q27 479
27 497Q27 511 33 529Q52 583 104 630T218 684Q222 685 229 685Q230 685 236 685T246 686Q304 686 349 654Q395 620 420 553Q421 551 422 549T423 545T424 542T426 539V538L454 576Q476 606 489 623Q529 668 587 682Q606 686 633 686Q660 685 678 678Q697 672 707
659T730 609Q743 571 750 565Q764 553 779 553Q792 553 817 562Q819 557 819 555V547L790 526Q743 492 730 479T712 447Q697 369 697 281Q697 166 726 108Q741 76 755 68Q762 65 777 67Q795 70 825 93V82Q825 71 822 70Q821 67 765 27T701 -18L692 -25L668 15Q662
25 650 45T635 70L627 85V107Z" />
<glyph unicode="O" glyph-name="O" horiz-adv-x="827" d="M428 596Q417 596 388 595T350 593Q290 593 270 625Q265 637 268 650Q273 670 301 695Q332 723 336 729H343Q351 729 351 728Q342 710 342 703Q342 698 347 691Q356 681 380 676T482 664Q558 658 604 643Q676
617 710 556T744 392Q744 261 702 177Q688 147 671 128T615 78Q512 -5 428 -23Q405 -27 377 -27Q300 -24 212 12Q176 28 149 34Q140 36 122 36T96 34Q56 23 29 -13L27 -15L12 0Q12 1 46 45Q63 66 88 92Q103 107 109 109Q144 123 165 149T187 207Q187 226 174 255Q160
281 130 323Q96 371 88 385T80 412Q80 452 110 496Q140 541 197 580L213 590Q216 590 224 585L234 580Q230 576 217 565T199 549Q165 513 165 484Q165 456 188 411Q203 383 227 345Q250 303 255 290Q261 274 261 259Q261 250 258 238Q245 185 179 124Q167 114 167
112Q170 111 174 111Q184 110 260 82Q336 52 383 44Q423 37 453 37Q513 37 559 69T626 152Q655 219 655 328Q655 407 635 469T578 559Q531 596 428 596Z" />
<glyph unicode="P" glyph-name="P" horiz-adv-x="828" d="M282 154Q307 154 331 146V287Q331 444 327 469Q321 522 301 560Q283 592 251 612T184 633Q151 633 125 612T93 562Q89 549 94 534Q100 517 142 462Q178 417 185 396Q186 393 186 386Q186 358 166 329T119
281Q98 263 70 250L49 260L51 262Q65 272 83 288Q112 319 112 339Q112 344 110 350Q105 364 69 411Q42 444 30 476Q28 483 28 497Q28 519 34 537Q46 573 79 610T153 669Q197 692 242 692Q314 692 353 653Q388 618 401 563L405 550Q410 555 416 562Q454 610 517
651T637 692Q667 692 687 676Q709 658 718 584Q722 557 726 549T741 535Q751 530 768 530Q790 533 797 536Q798 537 798 536T800 533T801 529T803 524L804 521Q758 496 738 480Q697 447 680 414Q677 407 677 396Q677 378 688 355Q698 336 716 308Q739 273 747 239Q750
227 750 210Q750 199 749 194Q740 97 659 32Q605 -11 560 -11Q553 -11 547 -11T534 -8T522 -4T504 3T482 11Q468 16 450 22T420 33L410 37V31Q410 -61 419 -138Q420 -146 420 -150Q419 -150 373 -184T326 -218L305 -208Q305 -207 307 -199Q316 -170 325 -85Q331
-28 331 43V63L318 66Q270 80 250 80Q233 80 213 70Q183 57 138 -3L128 -16L118 5L125 20Q175 118 234 144Q259 154 282 154ZM610 64Q646 64 671 87T697 144Q697 151 696 155Q689 193 651 248Q611 304 604 329Q602 341 602 345Q602 358 611 377Q625 408 671 449Q679
455 686 462Q659 474 646 494Q637 507 634 553Q631 595 624 608T593 631Q587 632 567 632H558Q522 626 478 583Q443 546 416 497L410 484V122L467 103Q574 68 597 65Q599 65 603 65T610 64Z" />
<glyph unicode="Q" glyph-name="Q" horiz-adv-x="827" d="M428 596Q417 596 388 595T350 593Q290 593 270 625Q268 630 268 638T271 652Q274 656 284 669T308 697T326 718L336 729H343Q351 729 351 728Q342 710 342 703Q342 698 347 691Q356 681 380 676T482 664Q558
658 604 643Q744 591 744 398Q744 364 743 356Q731 242 675 145Q657 114 646 104Q638 97 603 68L614 55Q656 10 691 -3Q697 -5 710 -5Q741 -5 774 16L781 20Q782 20 782 7V-6L771 -13Q722 -41 670 -67Q666 -69 665 -69L647 -63Q564 -34 523 1Q513 9 512 9Q510 9
499 3Q461 -15 428 -23Q405 -27 377 -27Q300 -24 215 11Q186 23 176 27T153 33T124 36Q66 36 33 -9L27 -16Q23 -13 19 -8L11 0L27 20Q54 55 89 93Q103 107 109 109Q144 123 165 149T187 207Q187 226 174 255Q160 281 130 323Q96 371 88 385T80 412Q80 452 110 496Q140
541 197 580L213 590Q216 590 224 585L234 580Q230 576 217 565T199 549Q165 513 165 484Q165 456 188 411Q203 383 227 345Q250 303 255 290Q261 274 261 259Q261 250 258 238Q245 185 179 124Q167 114 167 112Q170 111 174 111Q184 110 260 82Q336 52 383 44Q423
37 453 37Q513 37 559 69T626 152Q655 219 655 328Q655 407 635 469T578 559Q531 596 428 596Z" />
<glyph unicode="R" glyph-name="R" horiz-adv-x="828" d="M824 90V74Q823 73 759 24T693 -26Q692 -26 660 32L628 90L629 111Q631 159 631 177Q631 238 624 274Q622 290 614 300Q584 340 523 340Q494 340 446 328Q436 325 431 325Q429 325 429 322Q428 320 426
306Q409 197 366 125L358 112L342 99Q306 70 269 38T213 -10T193 -26T179 -15Q138 26 116 26Q80 26 50 -8L42 -16L35 -8L27 0L35 10Q87 76 130 98Q148 106 158 106Q164 106 174 102Q191 93 218 65L235 48Q237 48 261 66Q310 104 329 158Q352 227 352 359Q352 555
242 614Q214 628 187 628Q144 628 120 604Q91 577 91 548Q91 517 138 464Q166 430 176 410Q185 393 185 382V376Q185 363 183 356Q168 314 118 275Q85 248 76 246Q74 244 64 253L54 260L65 267Q91 285 100 302Q111 318 111 337Q111 346 108 353Q100 369 70 409Q34
459 29 478Q27 484 27 496Q30 546 71 595Q83 611 111 634Q162 676 223 684Q227 685 234 685Q236 685 241 685T251 686Q311 686 355 649T419 559L423 550L425 555Q428 563 456 593T501 636Q551 675 603 684Q607 685 626 685Q676 685 695 647Q705 627 710 572Q713
535 719 526Q730 513 766 513Q770 513 776 513T784 514T789 515Q793 516 794 516Q795 515 796 513T798 509T800 505T802 502V500Q795 497 787 493Q701 460 624 401L607 389Q655 383 688 358L697 352V342Q699 330 699 297Q704 204 710 169Q713 146 731 108T765 69Q769
69 806 83L824 90ZM562 628Q533 628 504 599Q477 574 443 507L435 491L436 479Q437 471 437 446Q437 394 432 351L529 389L602 426Q673 462 673 463H672Q664 465 659 467T649 470T642 476T638 481T634 489T632 497T629 509T626 524Q624 546 621 561T612 593T593
619T562 628Z" />
<glyph unicode="S" glyph-name="S" horiz-adv-x="829" d="M303 428Q303 368 366 368Q392 368 484 388Q580 409 613 409Q660 409 697 384Q725 365 737 341T750 276Q750 259 748 243Q732 116 630 45T378 -27Q223 -27 146 67Q66 163 66 307Q66 414 119 502Q192 625
356 676Q385 684 417 691Q418 692 420 692L442 681Q591 601 632 592Q637 591 654 591Q674 591 680 593Q723 605 739 656L742 665Q742 666 748 661T756 654L752 642Q736 593 706 565T621 515L607 510Q584 513 563 523T489 564Q423 601 384 616Q359 627 335 627Q318
627 309 625Q260 614 214 569Q139 500 139 373Q139 233 216 139T414 28Q430 26 455 26Q572 26 631 87Q676 135 676 207Q676 261 651 295T580 338Q574 339 552 339Q518 339 444 325Q367 310 327 310Q295 310 278 316Q258 324 244 343T230 390Q230 427 259 461Q284
486 338 507Q351 498 351 495Q303 472 303 428Z" />
<glyph unicode="T" glyph-name="T" horiz-adv-x="669" d="M75 367Q34 402 34 472Q34 495 36 503Q49 563 101 616Q171 686 289 686H296Q356 683 453 665Q534 649 565 649Q606 649 641 672L675 701Q676 698 676 692V681L641 636Q608 591 602 588Q577 575 528 575Q485
575 438 583L426 585L416 578Q345 528 336 476Q335 472 335 465Q335 435 380 383Q427 327 442 295Q452 275 452 259Q452 241 445 227Q436 207 406 171Q387 146 351 115L341 106L358 97Q438 58 475 58Q484 58 488 59Q536 66 598 124L608 133Q616 120 616 118Q616
113 606 103Q524 12 453 -25L448 -27L438 -25Q398 -18 336 15Q305 32 285 39Q254 48 234 48Q226 48 222 47Q180 41 122 -3L112 -11L106 -3L101 5L110 15Q160 63 209 105L224 117H310Q341 137 362 162T384 210Q384 241 330 302Q274 366 263 398Q260 406 267 426Q288
494 368 580Q383 596 381 596Q316 622 228 622Q145 622 102 579Q76 553 76 516Q76 457 139 431L107 399L75 367Z" />
<glyph unicode="U" glyph-name="U" horiz-adv-x="646" d="M35 37Q28 36 21 31T9 22T-4 8T-16 -5Q-25 8 -25 11L15 57L54 101Q70 104 86 116Q94 121 113 140T137 166Q160 201 160 247Q160 262 157 276Q147 315 108 386Q59 463 59 505Q59 526 75 553Q96 590 144
638Q177 669 207 690L218 697Q228 682 229 682Q229 681 219 673Q191 650 170 625Q144 589 144 552Q144 535 151 515Q156 499 179 451Q211 386 222 341Q228 320 228 291Q228 261 222 242Q218 226 212 218T166 163L118 107L121 106Q148 104 174 94Q195 87 220 77Q298
47 317 47Q354 47 409 105Q451 150 455 175Q458 194 458 277Q458 503 448 591L447 596L575 686L591 676L583 668Q557 640 547 608T533 522Q533 518 533 495T532 437T532 372T532 309T532 253T533 229Q537 186 554 138T593 81Q601 79 605 79Q629 79 657 96Q658 97
660 98T664 100H665V79L595 27Q578 15 560 2T532 -19L523 -26Q522 -26 490 42L458 111L397 50Q347 0 337 -8T311 -22Q295 -27 274 -27Q232 -25 152 6Q98 28 73 32Q50 37 35 37Z" />
<glyph unicode="V" glyph-name="V" horiz-adv-x="831" d="M90 27L80 43L95 59Q146 114 198 147Q208 154 213 154Q228 154 247 161Q276 170 300 195Q335 228 345 295Q352 338 352 406Q352 562 255 611Q222 627 187 627Q141 627 115 598Q96 579 96 559Q96 542 108
521Q122 495 145 468Q174 433 184 414Q192 395 192 381Q192 380 192 376T191 371Q186 345 156 314T80 256L70 250L54 266Q104 297 115 324Q118 332 118 339Q118 362 85 399Q30 461 27 493Q25 537 68 591Q142 686 256 686Q376 686 420 579L429 553Q432 553 463 584Q539
664 599 683Q611 686 624 686Q667 686 710 655Q740 635 750 630Q774 617 798 617Q812 617 825 622V606L815 599Q785 576 762 546Q724 495 724 432Q724 398 736 322Q744 278 749 234Q750 228 750 217Q750 150 711 96Q702 82 689 71T624 23Q588 -1 578 -10Q563 -21
555 -23T522 -26Q490 -26 463 -17Q419 -4 363 29Q267 82 229 88Q223 89 211 89Q153 89 103 39Q91 27 90 27ZM660 198Q660 222 655 296T650 387Q650 418 658 452L660 462L735 548H727Q701 551 652 582Q613 607 589 614Q578 617 567 617Q560 617 554 615Q530 609
497 576Q466 544 445 501L437 485V465Q432 325 382 231L378 223L294 150Q323 143 396 101Q520 31 560 31Q608 31 634 64Q660 102 660 198ZM264 150Q265 151 263 151H261Q261 150 264 150ZM280 150H276V149Q280 149 280 150Z" />
<glyph unicode="W" glyph-name="W" horiz-adv-x="1046" d="M195 628Q154 628 128 607T101 549Q101 538 104 528Q113 502 152 459Q192 414 192 382Q192 361 179 340Q166 318 138 292T85 254L75 250L64 258L55 266L69 274Q86 284 94 290T110 309T118 339Q118 361
85 400Q57 432 41 462Q32 481 32 501Q35 550 84 605Q158 686 264 686Q326 686 365 652Q403 615 420 564L441 585Q486 630 539 670L559 686L572 672Q639 602 665 559L682 576Q771 668 825 683Q836 686 845 686Q883 686 952 642Q954 641 959 638T965 634T971 631T976
628T981 626T987 624T992 623T999 622T1007 621T1016 621Q1039 621 1054 628L1051 617L1047 606Q1042 602 1037 597Q998 568 978 537Q954 502 954 434Q954 397 958 363Q968 286 968 221Q968 132 937 97Q933 91 887 50L816 -2Q794 -17 780 -21T735 -25Q690 -25 648
-7Q571 23 549 29Q530 35 505 37H496L463 21Q420 0 389 -20L378 -27H362Q298 -27 224 16Q192 35 170 43Q162 46 150 46Q137 46 132 44Q101 34 59 -5L48 -16L41 -6Q40 -4 38 -2T34 2L33 4Q33 8 77 54Q111 87 142 112L154 122H166Q239 127 288 182Q346 245 346 406Q346
517 307 570Q287 593 257 610T195 628ZM809 616Q804 617 796 617Q782 617 773 613Q730 597 682 525L676 516L677 498Q678 486 678 425Q678 300 652 206Q650 197 642 189Q631 177 604 141T577 101Q577 100 582 100Q596 100 625 91Q662 79 720 51Q761 32 790 32Q806
32 813 34Q850 45 869 83Q884 110 884 189Q884 238 878 298Q873 361 873 400Q874 443 882 463Q887 478 925 517L952 547Q922 558 885 581Q838 611 809 616ZM607 358Q607 435 585 495T524 587Q520 589 512 594T500 601L479 580Q449 550 433 526L426 516V503Q426
415 408 333T357 200L352 191L296 149Q241 107 241 105Q241 104 256 94T280 78Q338 42 393 42Q412 42 435 47Q497 61 547 109Q607 172 607 358Z" />
<glyph unicode="X" glyph-name="X" horiz-adv-x="719" d="M96 511L78 527L149 603Q202 660 227 686L237 685Q318 675 354 629Q375 602 395 533L400 516L406 527Q445 605 523 653Q542 666 587 688Q589 688 596 672T613 635T629 606Q643 588 665 588Q676 588 696
597Q699 598 702 599T707 602L709 603V585L607 526Q570 547 545 573Q523 595 512 614Q484 591 465 563Q410 481 405 381V367H581L563 347Q561 344 558 341T553 335T549 330T546 326L545 325L521 326Q455 334 411 334H405Q404 333 406 303T409 261Q416 185 452 126T545
55Q551 54 568 54T591 55Q624 62 662 86Q675 95 676 95V74L565 -16L553 -20Q528 -27 512 -27Q498 -27 485 -23Q456 -16 433 4T396 49T374 96T361 136L357 151Q354 151 325 122Q269 66 232 37Q172 -8 129 -20Q119 -22 113 -22Q68 -22 33 23Q28 29 28 32L58 68L86
101Q95 78 116 63T165 47Q180 47 190 50Q218 57 249 84Q302 128 325 222Q334 263 336 312V334H312Q260 334 221 330Q179 328 163 324H161Q163 327 170 334T182 348L198 367H336V398Q333 508 308 550Q277 601 227 601Q196 601 164 580Q154 573 130 548T98 513L96
511Z" />
<glyph unicode="Y" glyph-name="Y" horiz-adv-x="833" d="M155 122Q352 135 352 399V410Q349 489 323 542Q304 581 270 604T197 628Q126 628 105 574Q102 566 102 553Q102 539 104 532Q112 505 141 471Q185 419 191 393Q192 390 192 383Q192 360 173 333Q143 292
75 250L59 266Q85 286 104 308T123 345T80 409Q27 471 27 496Q27 527 59 572T121 639Q169 677 242 685H256Q308 685 334 675T384 635Q420 586 425 542Q471 588 538 637Q582 671 618 686Q636 661 664 640Q690 618 710 606Q724 595 724 594Q740 514 740 375Q740 285
738 263Q726 96 682 -3Q664 -43 604 -100Q556 -144 502 -174T403 -214Q384 -218 361 -218Q295 -218 254 -183Q247 -177 239 -166T230 -150Q230 -148 267 -109L304 -69Q310 -111 338 -140T411 -170Q450 -170 488 -150Q534 -126 568 -86Q605 -40 624 11Q660 111 660
312Q660 447 633 528L612 549Q578 583 552 596L543 601L528 592Q501 574 483 558Q454 528 436 494L431 484V473Q431 330 376 230Q366 213 359 206T306 159L250 112Q280 104 321 84Q374 58 399 58Q422 58 441 69T471 92T484 104H485L493 90L480 73Q453 39 429 13Q393
-22 372 -22Q368 -22 356 -20Q329 -16 267 13Q178 53 153 53Q96 53 53 -9L48 -16L38 5L41 11Q75 60 128 108L143 122H155Z" />
<glyph unicode="Z" glyph-name="Z" horiz-adv-x="602" d="M148 590Q97 592 91 627V633L160 729H176Q169 710 169 705Q169 693 177 685Q193 670 244 670Q262 670 301 672T357 675Q407 675 433 661T468 609Q469 605 469 596Q469 572 460 540Q445 498 404 457Q360
413 301 372Q325 378 359 378Q454 378 502 325Q516 310 519 297Q532 249 532 198Q532 86 472 -17Q454 -47 442 -57Q370 -112 283 -131Q241 -139 202 -139Q165 -139 125 -131L112 -129V-100Q112 -47 106 -33Q96 -17 75 -17Q55 -17 31 -35L22 -42L11 -26L22 -18Q69
17 110 30Q128 36 151 36H160Q178 36 186 28Q193 22 194 13T197 -32Q198 -77 204 -88Q217 -107 251 -107Q265 -107 280 -104Q357 -89 399 -18T442 155Q442 240 407 274Q360 319 285 319Q235 319 192 298Q189 300 186 303L181 309L224 372L229 373Q274 377 318 414T375
493Q384 520 384 540Q384 568 362 584T306 600Q282 600 264 598Q181 590 148 590Z" />
<glyph unicode="[" glyph-name="bracketleft" horiz-adv-x="278" d="M277 711L159 699V-93H162Q167 -93 220 -96T276 -100Q278 -100 278 -109V-119H262Q206 -121 143 -128L118 -130Q117 -130 117 305V740H122Q141 737 219 736H278V723Q278 711 277 711Z" />
<glyph unicode="]" glyph-name="bracketright" horiz-adv-x="278" d="M1 -103Q3 -102 57 -97T113 -92H118V700L64 703Q7 707 3 708H-4V732H21Q34 733 64 733Q82 733 142 736Q156 738 158 738H160V-131H154Q101 -125 40 -124H-4V-103H1Z" />
<glyph unicode="^" glyph-name="asciicircum" horiz-adv-x="500" d="M0 464L250 734L262 722Q274 712 384 598L495 486L456 459L248 672L154 580L23 452Q7 460 0 464Z" />
<glyph unicode="a" glyph-name="a" horiz-adv-x="500" d="M86 363Q86 365 128 391T212 444L255 470L256 469Q258 468 260 467T264 465Q283 452 308 442Q338 431 346 431Q350 431 358 436L414 465L421 459L418 434Q404 342 404 262Q404 189 407 126L408 119L425
97Q443 74 444 74L467 86L491 97Q492 97 497 83L436 28Q377 -26 374 -26L331 46L329 91L155 -35Q154 -35 136 -15T96 29T68 65L67 86Q66 100 66 156Q66 253 78 322Q81 349 86 363ZM203 387L187 392Q184 392 176 379Q145 332 145 197Q145 178 147 138Q148 121 151
118Q156 110 187 78L208 56H214Q221 57 253 76L308 109L329 123V136Q328 143 328 257V365H314Q269 368 203 387Z" />
<glyph unicode="b" glyph-name="b" horiz-adv-x="513" d="M196 -31Q192 -29 147 13T87 71L89 89Q100 155 100 319Q100 500 94 627Q94 632 94 638T94 648T94 656T93 662V664Q93 668 101 669Q110 671 110 670Q114 653 118 633L127 596Q127 595 132 597Q136 599 195
642L255 685L272 673Q271 671 254 656T234 639Q187 592 179 508Q177 494 177 427Q177 367 179 365Q182 362 199 376Q240 410 271 433Q317 469 323 469Q328 467 333 464Q350 454 440 409L441 396Q441 394 441 372T442 334Q442 203 425 108L423 97L400 83Q332 39
285 14Q205 -31 196 -31ZM295 377L274 385Q273 385 264 381T242 370T223 361Q213 355 188 340L178 333V123L198 103Q242 59 267 47Q279 42 285 42Q298 42 314 56T339 85Q363 132 363 232Q363 310 358 343V349L345 355Q330 363 295 377Z" />
<glyph unicode="c" glyph-name="c" horiz-adv-x="389" d="M177 390Q154 350 154 238Q154 220 156 158V145L168 132Q179 121 208 93T244 59Q245 58 255 61Q282 70 332 99Q348 108 350 108L352 104Q355 100 356 96L358 92Q358 91 279 35T187 -29L177 -20Q160 -6
120 36T77 84L76 89Q76 94 75 102T74 118Q72 158 72 208Q72 264 74 288Q78 343 84 361Q84 363 167 414Q248 466 250 466Q255 465 260 465Q292 458 319 444Q357 423 357 422L306 343L301 342L296 340Q233 387 186 389L177 390Z" />
<glyph unicode="d" glyph-name="d" horiz-adv-x="499" d="M13 542Q13 544 77 576T147 609H148Q187 599 227 580Q318 540 414 464L427 454V440Q427 436 427 412T428 372Q428 191 396 110L394 103L304 35Q285 21 261 2T225 -25L214 -33Q209 -33 158 6Q126 30 97
59L76 80L75 91V171Q75 253 79 297Q80 316 78 321Q78 323 78 326L77 330Q78 334 114 367Q176 426 211 447L219 445Q221 445 224 444L228 443Q229 443 228 441T221 432T206 415L191 395Q175 378 162 339Q152 306 152 250Q152 201 159 140V134L171 121Q200 94 246
67Q279 48 284 48Q294 48 306 70Q349 146 349 267Q349 350 336 400L315 420Q246 489 176 525Q130 545 94 545H73L27 527L13 542Z" />
<glyph unicode="e" glyph-name="e" horiz-adv-x="401" d="M353 103Q353 101 355 95T358 87L337 71Q293 38 247 6Q191 -30 189 -30Q188 -30 178 -20T152 4T127 29Q103 53 76 85L74 99Q70 139 70 190Q70 256 77 312Q81 358 84 365L94 372Q105 378 126 392T166 417L246
467Q284 417 349 369L364 358L355 349Q249 249 169 180L151 166L152 152V139L165 126Q198 93 242 67Q252 62 260 62Q267 62 309 82L353 103ZM179 393Q175 397 174 397Q171 395 169 393Q149 373 149 219V211Q152 211 186 234Q235 266 268 299L282 313L267 323Q244
338 219 358Q213 363 197 377T179 393Z" />
<glyph unicode="f" glyph-name="f" horiz-adv-x="326" d="M128 387Q128 391 112 456T92 546V555L101 568Q133 617 183 670L193 681L204 673Q238 648 262 648Q276 648 292 656L302 661L308 653Q308 652 278 618L249 585H234Q194 587 159 595Q158 595 156 596H153L150
597Q158 536 176 494Q199 436 203 400V392H207L323 386Q323 384 309 368L296 351H203V176Q202 -2 201 -12Q196 -42 193 -56Q190 -69 153 -139T114 -214L110 -221Q105 -221 98 -220L87 -219V-216Q124 -84 124 -82Q125 -80 127 -59Q128 -46 129 155V351H30L64 386H96Q128
386 128 387Z" />
<glyph unicode="g" glyph-name="g" horiz-adv-x="504" d="M27 -144L17 -131L82 -75L146 -20L126 6Q99 37 92 48L78 65L77 79Q75 103 75 158Q75 257 85 334Q89 366 91 368Q96 376 176 425Q187 432 222 452Q240 465 249 469L251 470Q297 442 350 428L365 424L437
465L442 459V458Q441 456 440 454T439 449Q421 405 421 215V133L423 119L447 17L455 -17Q455 -19 421 -60T367 -123Q304 -195 290 -201Q290 -204 275 -206T252 -209Q247 -209 231 -207Q156 -196 75 -135L62 -126Q60 -126 44 -135L27 -144ZM328 354Q257 363 178
389Q158 336 156 296Q155 287 155 259Q155 195 159 135L160 124L170 112Q180 101 204 77T230 53Q231 53 286 88L340 123V141Q340 235 348 329Q348 334 348 339T348 348L349 351Q344 351 328 354ZM293 -134Q327 -134 345 -117T364 -69V-59Q364 -26 347 63Q341 87
341 93Q339 93 277 47Q208 -6 152 -54L149 -57Q226 -134 293 -134Z" />
<glyph unicode="h" glyph-name="h" horiz-adv-x="521" d="M213 50Q209 45 172 11T131 -24Q130 -24 125 -15T107 18T77 65V78Q78 85 80 130Q88 296 88 427Q88 526 83 639Q83 643 83 649T82 660T81 667Q81 673 82 673T89 676H94L117 600L200 661Q208 667 218 674T233
684L238 688L254 678Q222 646 216 637Q180 592 169 543Q164 524 164 442V371Q192 394 307 475L312 478Q344 446 411 423L428 417L429 396Q434 297 434 218Q433 127 426 68Q417 -14 406 -34Q348 -109 262 -195L251 -205L249 -203Q248 -203 244 -199T236 -193Q226
-183 227 -182Q228 -182 246 -168T282 -138T301 -121Q330 -89 340 -22Q355 60 355 171Q355 215 352 257Q345 353 344 354Q296 390 260 390Q256 390 248 388Q228 382 179 350L164 341V121Q187 85 201 66L213 50Z" />
<glyph unicode="i" glyph-name="i" horiz-adv-x="279" d="M72 616T72 617T84 629T110 653L124 665Q132 673 133 673H134Q134 672 149 655Q165 637 175 627L187 615L130 555L116 568Q75 612 73 615Q73 616 73 616ZM27 369L14 382L26 392Q65 424 119 474Q154 439
169 427L179 420L176 395Q166 304 166 227Q166 171 174 139Q179 113 190 97Q200 79 208 75Q210 75 213 78Q217 81 238 90T261 100Q262 100 264 92T267 83Q267 80 208 30T145 -20Q143 -20 118 17L91 55Q98 117 98 193Q98 268 91 347Q90 363 88 369Q71 390 68 390Q63
390 39 376L27 369Z" />
<glyph unicode="j" glyph-name="j" horiz-adv-x="281" d="M101 644L132 672L145 657Q155 642 169 628L182 614L169 600Q148 579 140 570L125 555L112 568Q109 570 86 597Q83 600 80 604T74 611T72 615Q72 617 101 644ZM19 -208Q-9 -185 -9 -183Q-9 -182 -6 -181Q13
-168 42 -143T80 -106Q88 -96 99 -71Q118 -15 118 179V212Q117 318 110 345Q104 368 86 383Q78 389 76 389Q73 389 57 379L39 367Q26 380 26 381L33 387Q40 393 53 405T79 428L130 474Q152 454 186 428L195 422L196 376Q196 119 189 18Q186 -17 174 -35Q172 -39
104 -114T19 -208Z" />
<glyph unicode="k" glyph-name="k" horiz-adv-x="389" d="M93 348Q93 349 92 421T89 571T87 658V670Q87 671 94 671L100 672L112 636Q124 603 124 600L144 616Q196 659 234 682L246 689Q249 687 257 684T268 680L254 667Q223 639 209 623T183 578T168 505V497L178
504Q203 523 237 544L300 584L310 573Q351 531 357 496Q359 486 359 481Q359 460 347 441Q346 440 339 433T321 413T299 389L255 343L300 342H346L320 309H177V128L193 113Q214 92 244 68L254 60L303 84Q351 108 352 108L362 96Q352 81 276 30Q198 -25 194 -25L170
-4Q146 18 120 41T89 68Q94 82 94 168Q94 184 94 218T93 268V309H58L24 310L51 342H93V348ZM241 517Q199 496 185 465T168 365V342H172Q234 342 270 395Q287 420 287 445Q287 456 284 463Q276 483 255 504Q242 517 241 517Z" />
<glyph unicode="l" glyph-name="l" horiz-adv-x="280" d="M221 76L267 99Q269 99 270 91T270 82L262 76Q255 69 241 57T214 34L148 -20L98 56L99 89Q107 247 107 373Q107 494 101 621Q101 653 99 659V665L106 668L113 672L118 655Q122 642 131 617L138 597Q140
597 157 611L240 670L264 685Q265 685 270 680T276 674Q270 668 262 661Q213 619 192 570T171 438Q171 411 175 290T179 147V117Q184 110 201 93T221 76Z" />
<glyph unicode="m" glyph-name="m" horiz-adv-x="767" d="M20 367L8 379Q9 380 63 425T118 471Q130 460 143 446L168 421V398L169 376L295 475Q366 432 415 418V399Q415 380 416 380Q445 399 465 414Q492 433 529 462L544 474L556 467L630 430Q639 427 653 421L665
417L664 412Q664 411 664 407T664 397T663 384Q660 342 660 335Q658 303 658 245Q658 186 660 152L661 126L669 115Q681 95 697 79L707 83Q728 93 732 96Q738 99 742 101T747 102L750 95Q753 88 753 87L631 -18Q625 -10 613 9T589 43L576 60L579 72Q592 142 592
218Q592 265 584 321Q581 345 578 350T560 363Q535 376 496 386L481 390Q476 387 425 358L415 351V238Q415 123 416 120Q417 116 441 81L465 47Q459 41 420 8L380 -26Q357 13 343 32Q341 34 340 36T337 40T334 44L333 45Q331 47 334 53Q345 107 345 184Q345 245
337 327Q334 347 333 348Q328 354 307 365Q291 373 258 382L240 388L169 347L168 240Q168 118 171 110L174 106Q178 101 183 93T195 78L217 48Q217 47 196 30T154 -5T133 -21L130 -16Q127 -10 122 0T111 19Q89 56 89 60Q95 77 95 153Q95 227 88 337V365L62 391L20
367Z" />
<glyph unicode="n" glyph-name="n" horiz-adv-x="527" d="M31 368Q20 378 20 380Q20 381 72 427L121 470L129 463Q134 458 152 444T176 425V367L320 475L329 469Q392 428 434 417L432 402Q429 362 429 231V128L439 111Q442 106 445 101T450 94T453 89T456 85T459
83T462 82T467 82L488 94Q510 105 511 105T514 95V88L395 -18L340 65L341 77Q347 111 348 178Q348 254 345 321Q345 326 345 334T344 347T343 353V358L332 363Q298 377 264 382Q260 382 254 382L249 383Q247 383 211 362L176 341V229Q176 115 177 112Q178 106 197
80T217 53T175 15T132 -22L131 -20Q130 -19 129 -18T127 -14Q110 15 88 41Q84 45 84 50Q94 116 94 203Q94 222 93 265T92 324L90 364L67 388L50 378Q32 368 31 368Z" />
<glyph unicode="o" glyph-name="o" horiz-adv-x="489" d="M67 121Q69 254 84 359V364L97 371Q166 410 248 472Q257 480 260 480Q261 480 262 479Q332 434 394 418L406 414Q412 389 412 300Q412 203 394 105Q391 94 391 92L381 86Q270 16 183 -21L165 -28Q160 -24
144 -10Q91 38 74 60L67 68V121ZM335 278Q335 341 333 349V356H326Q288 360 208 388L183 397Q181 397 166 370Q142 317 142 239Q142 193 151 134Q152 124 155 120T175 99Q216 58 254 47Q263 44 267 44Q272 44 281 53Q313 85 324 139T335 278Z" />
<glyph unicode="p" glyph-name="p" horiz-adv-x="500" d="M23 25L12 38L35 59Q76 97 87 105V351L68 378Q42 414 42 422Q42 434 59 460Q86 501 114 530L125 541Q126 541 132 537T138 532Q121 504 121 488Q121 454 160 413L167 405L166 390Q165 381 165 378T165
372Q169 372 233 421T305 478Q307 479 315 472Q374 433 412 419L425 414L426 410Q426 407 426 401T426 388Q430 335 430 272Q430 140 408 80Q407 78 340 22L273 -33Q229 1 193 15Q173 23 165 23Q164 23 164 -32Q165 -89 168 -155V-170L93 -212L78 -203Q84 -93 87
16V47H79Q52 45 23 25ZM319 41Q346 97 349 212Q349 278 343 343V351L330 357Q318 362 270 381L255 387L245 383Q212 370 178 345L166 336V287Q165 260 165 166V94H175Q219 90 299 51L319 41ZM132 57L129 60Q130 58 132 57ZM158 29Q159 29 155 34T145 45T138 50Q155
29 158 29Z" />
<glyph unicode="q" glyph-name="q" horiz-adv-x="489" d="M399 19Q399 -119 407 -174V-179L332 -219L322 -210L312 -202L314 -185Q320 -83 323 54V95L311 85Q255 40 162 -19Q146 -29 145 -27Q140 -22 103 20L63 65V73Q61 83 61 115Q61 122 61 135T60 154Q60 263
79 353L83 368L94 375Q189 427 231 460Q246 471 247 471L260 464Q274 457 295 448T330 434L341 432L410 479L412 478Q414 476 416 475T419 473L417 461Q409 417 404 307Q399 185 399 19ZM319 196Q320 216 320 256T321 322T325 361V367H316Q260 372 194 392Q179
397 176 397H175Q173 397 169 387Q139 321 139 187Q139 138 141 133Q143 126 176 92T211 58L218 62Q226 67 240 75T266 91L319 124V196Z" />
<glyph unicode="r" glyph-name="r" horiz-adv-x="389" d="M107 467L115 474L128 461Q162 429 182 414V382L235 425Q247 435 261 446T283 462L290 468L297 459Q324 411 345 401Q351 398 357 398Q365 398 377 404Q379 405 381 406T384 408H386Q386 404 387 400V393L369
377Q349 359 341 351Q324 335 303 335Q291 335 276 342Q255 351 234 371L224 379Q221 376 213 369T198 355L182 340V243Q182 164 183 152T189 129Q200 108 228 82Q252 60 254 60T298 81Q342 101 343 101Q344 100 345 92T346 82L200 -21Q173 -3 117 55L97 75L99
92Q106 147 106 196Q106 241 102 305Q101 349 97 355Q95 359 95 361Q95 364 77 378L65 387L48 380Q30 372 29 372Q28 371 23 374T17 380T22 387Q52 421 107 467Z" />
<glyph unicode="s" glyph-name="s" horiz-adv-x="443" d="M-9 11L-18 23L-1 41Q49 92 63 100Q83 110 112 110Q136 110 154 104Q168 99 196 81T246 48T272 33Q281 33 287 57Q296 92 296 138Q296 181 290 198T262 230Q257 232 246 232Q229 232 213 224Q208 222 156
194L108 167L101 176Q90 192 75 219L69 230V284Q69 346 70 357V377L146 427Q181 450 202 464T223 477L225 476Q227 475 229 474Q232 471 252 460Q279 445 296 431Q309 418 327 418Q343 418 362 429T392 450L403 459Q406 445 406 442T365 404T316 363Q314 362 303
363Q239 370 173 396Q156 403 155 403Q154 400 152 396Q143 378 143 342Q143 261 168 244Q171 242 181 242L190 243L315 300Q332 295 357 274Q368 265 369 262T372 245Q374 213 374 185Q374 104 359 55L358 50L336 40Q269 11 213 -21Q211 -22 209 -23T205 -26T202
-27T199 -28L198 -29Q193 -25 187 -19Q134 28 92 43Q83 46 70 46Q54 46 41 42T21 33T-2 16Q-7 11 -9 11Z" />
<glyph unicode="t" glyph-name="t" horiz-adv-x="333" d="M228 640L242 627L227 613Q221 607 219 605T214 599T211 594T209 587T207 580T205 568T203 553Q197 500 196 435V389H301L272 353H195V274Q195 178 196 159L197 123Q210 110 245 82Q261 69 273 68H280L312
83Q344 99 345 99Q348 99 348 78Q348 76 314 52T246 4L212 -20Q211 -20 164 19T112 62Q112 122 113 196Q113 228 113 262T114 318T114 341V353H27L62 389H116L117 431V558L228 640Z" />
<glyph unicode="u" glyph-name="u" horiz-adv-x="517" d="M339 268Q339 291 338 343T337 412V424L420 468L424 465L427 461L424 435Q412 327 412 226Q412 171 415 146T434 96Q442 84 452 83Q461 83 492 96L506 102Q507 102 510 96T513 88L493 71Q445 32 401 -9Q392
-18 388 -17L384 -16Q362 31 355 44Q336 77 333 77Q327 77 285 51Q240 25 203 -9Q186 -23 181 -23Q177 -23 157 -7Q107 31 69 44L57 48L61 54Q65 60 71 73T82 102Q100 157 100 262Q100 356 67 390L62 396L23 376L16 380L9 386L119 474Q149 437 171 421V339Q170
244 167 217Q164 188 159 160T150 117L147 103Q147 102 196 80L244 57L335 107V116Q339 161 339 268Z" />
<glyph unicode="v" glyph-name="v" horiz-adv-x="512" d="M100 503Q121 530 123 530Q124 529 126 529Q129 528 130 528Q135 527 135 526T131 516Q123 499 123 486Q123 458 159 416L169 405L170 388L171 372Q171 371 244 424L317 477L334 466Q391 430 432 416L433
402Q433 400 433 377T434 336Q434 201 420 131Q413 94 406 87Q403 84 298 29L192 -28L172 -8Q139 25 106 52L92 64V70Q95 97 95 198Q95 293 94 318L92 355L84 367Q65 393 58 406Q55 412 55 418Q55 420 57 430Q62 452 100 503ZM174 306Q174 295 173 248T171 184Q171
147 175 138Q181 117 198 100Q202 97 220 82T253 58T282 49Q304 49 328 80Q359 127 359 243Q359 284 352 345Q351 358 348 360Q325 380 279 393Q277 393 274 393T270 394T266 396H265L251 390Q215 372 186 351L175 344V337Q175 319 174 306Z" />
<glyph unicode="w" glyph-name="w" horiz-adv-x="774" d="M684 406Q688 406 688 323Q688 190 656 88Q652 74 648 71Q647 70 554 20L464 -28L443 -15Q416 1 351 36Q338 43 334 45T331 49Q331 50 332 64T334 99T337 132Q339 178 339 216Q339 299 334 339Q270 389
246 389Q235 389 201 369T166 346Q166 345 164 247Q164 149 165 139Q168 118 178 100Q188 79 205 57L212 48L136 -27Q118 11 87 44L78 53L80 67Q88 127 88 211Q88 298 85 339Q84 358 74 371Q51 401 47 414Q45 422 45 425Q45 433 59 453Q79 485 114 522Q124 532
126 532T137 529L132 519Q121 500 121 483Q121 475 131 456Q143 433 156 419L167 408L169 376L185 388Q222 413 291 473L301 466Q337 443 394 416L419 405L418 387V369Q421 369 489 419T560 471L581 459Q611 441 623 436Q678 406 684 406ZM520 380L504 385L418
342L417 318V220Q418 137 424 121Q433 99 454 83Q497 52 530 46Q542 44 544 44Q565 44 583 77Q590 92 596 126Q604 168 605 235Q605 289 600 322Q598 343 597 345T591 352Q562 370 520 380Z" />
<glyph unicode="x" glyph-name="x" horiz-adv-x="389" d="M114 188Q114 291 108 347V354L96 365Q76 385 67 385Q62 385 45 377L27 368L14 377Q55 418 94 453L117 472Q130 462 144 449L193 408V392V376L247 420Q300 464 301 464L310 451Q331 417 363 390L333 365Q303
340 301 340Q293 343 283 356Q260 386 250 386Q241 386 215 361L195 341Q189 300 188 269Q188 220 192 148Q193 122 195 118T210 101Q246 68 259 62Q268 57 278 61L318 82Q327 86 336 91T351 98L356 101Q359 82 356 79Q354 77 283 27T210 -24L192 -7Q160 23 137
40L126 49L116 40Q66 -12 66 -54Q66 -77 81 -97T121 -127Q144 -135 167 -140L179 -142V-147L180 -152L123 -188L112 -185Q58 -170 31 -145Q10 -122 10 -96Q10 -80 22 -53Q44 -10 95 49Q107 63 108 65T111 79Q114 109 114 188Z" />
<glyph unicode="y" glyph-name="y" horiz-adv-x="499" d="M74 58Q89 126 89 241Q89 256 89 279T88 307Q88 311 88 317Q86 346 80 354Q75 361 71 368Q57 388 52 398L45 409Q61 452 98 507L113 528Q127 525 128 525Q130 524 125 516Q117 498 117 483V471L130 445Q157
409 161 405Q163 404 163 384V365Q165 365 237 419L311 473Q380 431 415 418Q426 414 426 411V404Q426 398 426 388T427 367Q431 233 431 201Q431 69 410 -11Q403 -38 391 -52Q387 -58 305 -138T221 -218L218 -217Q216 -216 211 -214T202 -210L184 -202L199 -194Q270
-157 298 -114Q320 -82 331 -39Q350 37 350 184Q350 257 342 328L340 356Q280 390 262 390Q259 390 245 383Q219 371 178 346L163 336V111L216 45L131 -26L124 -15Q114 3 85 44L74 58Z" />
<glyph unicode="z" glyph-name="z" horiz-adv-x="391" d="M47 335L36 347L52 362Q112 421 167 461L181 471L192 465Q267 429 282 381Q284 373 284 369Q284 353 275 341Q273 339 234 293T195 245Q200 243 206 241Q250 226 300 198L302 187Q314 138 314 74Q314 -26
291 -95Q290 -100 222 -157L154 -214H145Q99 -214 54 -189Q2 -160 -7 -117L-5 -113Q53 -10 183 122L207 147Q203 151 164 165Q121 180 100 180H97V192L140 231Q191 279 199 292Q205 302 205 315Q205 339 185 363T137 388Q129 388 117 383Q101 375 63 347L47 335ZM211
143Q222 132 222 130Q214 122 203 113Q138 56 99 -2Q79 -33 73 -58Q72 -63 72 -70Q72 -83 79 -96Q87 -114 114 -132Q144 -153 179 -153Q212 -153 226 -114Q240 -64 240 14Q240 47 236 85T224 131Q215 140 211 143Z" />
<glyph unicode="&#xa0;" glyph-name="uni00A0" horiz-adv-x="250" />
<glyph unicode="&#x2018;" glyph-name="quoteleft" horiz-adv-x="215" d="M129 694L140 708Q144 708 153 694L147 682Q114 623 108 599Q106 592 106 577V571Q106 552 135 506Q155 474 156 471Q158 467 158 455Q158 431 133 416Q124 410 117 410Q100 410 80 442Q45
495 45 539Q45 560 58 586Q80 631 129 694Z" />
<glyph unicode="&#x2019;" glyph-name="quoteright" horiz-adv-x="215" d="M51 666Q53 673 67 682T92 692Q104 692 116 676Q138 649 153 608Q163 585 163 563Q163 537 148 507Q132 474 100 430Q89 417 74 395Q72 395 65 400T58 407L60 410Q61 412 64 416T69 425Q81
445 87 460Q105 493 105 523V529Q105 546 74 593Q53 628 50 641Q50 642 50 645T49 651Q49 658 51 666Z" />
<glyph unicode="&#xe300;" glyph-name="uniE300" horiz-adv-x="497" d="M154 683L157 681Q160 679 162 677T165 674T158 663T144 636T137 598Q137 582 141 570Q151 539 195 508Q267 462 411 441Q426 439 427 436Q427 432 428 402T430 362Q430 222 396 109L393
99L305 33Q218 -32 216 -32Q208 -29 142 22L91 68L78 81L77 94Q75 130 75 173Q75 247 87 347L135 385Q178 418 184 424L177 428Q174 429 170 431Q146 441 140 444T116 457T93 476T81 500T75 534Q78 604 142 671L154 683ZM342 371Q340 371 275 394T208 417Q202 417
186 386Q156 323 156 229Q153 186 153 157Q153 141 156 135Q157 130 173 116Q250 51 280 51Q288 51 295 58Q346 109 346 297Q346 338 344 353Q344 356 343 363Q342 370 342 371Z" />
<glyph unicode="&#xe301;" glyph-name="uniE301" horiz-adv-x="498" d="M39 551L35 569L52 577Q93 596 141 611L158 616Q161 616 223 594Q334 549 412 477Q426 463 428 458T431 427Q432 410 432 376Q432 223 401 124Q395 106 393 103T382 92Q338 57 274 15Q212
-29 206 -29Q201 -31 137 26L100 60L78 83L77 112Q76 132 76 170Q76 259 86 342L88 360L101 371Q106 376 127 394Q145 409 179 434T215 459Q216 459 224 455T233 450L229 446Q225 442 218 434T203 419Q179 394 175 389T168 372Q156 334 156 262Q156 167 164 137Q167
127 183 112Q192 105 215 89T258 59T279 45Q284 45 297 69T315 105Q346 180 346 316Q346 367 344 389L343 406L326 423Q228 520 113 559L100 564L70 557L39 551Z" />
<glyph unicode="&#xe302;" glyph-name="uniE302" horiz-adv-x="333" d="M134 22Q134 52 130 183T125 349V354H29L59 385H91Q123 385 123 386Q122 397 121 411Q116 475 116 511Q116 544 118 557T132 592Q146 620 170 646T220 678Q230 680 236 680Q262 680 297 656Q308
648 312 648Q318 648 327 656Q337 664 337 661Q337 660 338 654L339 648L268 566L260 574Q234 600 206 600Q180 600 163 584T145 541Q145 524 147 517Q160 467 211 386L267 385H324L299 354H214V312Q214 86 193 -58L192 -69L116 -215H108Q92 -215 92 -212Q94 -210
101 -185Q121 -130 128 -80Q134 -41 134 22Z" />
<glyph unicode="&#xe303;" glyph-name="uniE303" horiz-adv-x="329" d="M180 613Q160 613 146 599T132 564Q132 556 135 545Q140 529 172 470T209 395L210 388H318L296 356H206V322Q204 284 204 255Q204 247 204 229T203 183T202 136Q201 11 194 -27Q186 -74 160
-124Q148 -146 116 -199L101 -224L91 -220Q85 -218 84 -217T83 -215L101 -161Q115 -117 119 -73Q122 -41 122 108Q119 334 117 352V356H72L28 357L66 388H92Q118 388 118 389L109 433Q91 514 91 530Q91 540 92 545Q101 601 168 659Q188 676 194 678Q195 678 200
678T209 679Q272 679 310 644L316 639L293 593Q267 547 263 546H262Q260 546 256 553Q237 588 213 603Q197 613 180 613Z" />
<glyph unicode="&#xe304;" glyph-name="uniE304" horiz-adv-x="503" d="M254 -150Q299 -150 331 -124T363 -54Q363 -29 354 19Q343 94 339 98L250 34Q160 -30 159 -30L77 64V71Q74 95 74 174Q74 294 89 359L90 366L117 384Q206 446 238 464L250 471Q281 452 320
437Q359 423 365 423Q443 464 443 465Q444 465 449 455Q430 411 423 339Q420 311 418 201Q418 135 420 121Q438 -4 438 -19Q438 -26 436 -34Q434 -46 427 -55T370 -119Q312 -184 305 -191Q282 -214 225 -214Q142 -214 76 -164Q52 -147 52 -143Q52 -138 90 -48Q90
-47 95 -47H101Q105 -68 119 -85Q163 -150 254 -150ZM341 136Q341 138 344 241T347 348V355L334 356Q276 360 199 385L179 391Q178 391 176 386T172 374T169 361Q158 320 158 227Q158 164 161 128V121L174 106Q198 80 223 59L341 127V136Z" />
<glyph unicode="&#xe305;" glyph-name="uniE305" horiz-adv-x="333" d="M92 446Q92 606 82 664Q83 664 88 667T95 670L96 666Q98 661 101 651T108 633Q121 598 121 597L141 612Q198 653 236 678Q238 679 240 680T243 682T246 684T249 686H250Q252 686 266 679Q264
677 259 673T248 664Q208 631 192 603Q178 579 173 546Q172 541 171 530T170 511T170 502Q171 502 222 542L273 582Q308 522 315 504L279 449L269 462Q240 496 227 503Q219 506 215 506Q202 506 190 490Q164 458 164 395V390H279L266 373L254 355H167V306Q169 252
169 217Q170 195 170 147V117L200 92L232 66Q236 64 237 64Q243 64 277 81L311 99V75Q310 75 242 27L174 -20L156 -3Q136 15 127 24Q85 60 81 60L79 62Q80 60 82 62Q87 67 87 290V355H57L26 356L73 390H92V446Z" />
<glyph unicode="&#xe306;" glyph-name="uniE306" horiz-adv-x="334" d="M117 531Q117 533 137 544T178 566L198 577Q200 577 204 575T208 572V570Q208 568 208 566T207 560Q197 490 197 397V392H321L295 353H199V260Q199 157 200 145V122L269 68Q271 67 274 67Q281
67 311 84Q339 100 342 100Q343 100 345 92T346 83L211 -21L172 12Q163 20 152 29T134 45T125 53Q116 61 117 64Q118 75 120 238V353H75L29 354L65 391H118V460Q117 498 117 531Z" />
<glyph unicode="&#xe307;" glyph-name="uniE307" horiz-adv-x="501" d="M337 91V78L324 71Q270 44 208 -7Q188 -22 180 -22Q174 -22 158 -9Q113 23 88 36Q68 46 60 46H59L63 51Q67 56 73 68T85 96Q101 161 101 254Q101 357 71 388L66 394L53 388Q47 385 38 381T24
374Q23 375 20 378T13 384L10 386L119 475Q120 474 136 456T160 430L171 422V409Q173 377 173 300Q173 185 148 112Q145 105 145 102Q152 100 160 97Q213 77 242 58L337 104V111Q340 146 340 227Q340 263 339 323T338 408V423L422 469L429 462L426 438Q413 354
413 251Q413 174 419 138Q422 120 431 101T452 82Q455 82 467 86T493 96T509 103Q509 102 510 99T513 93T514 89T497 73Q463 46 409 -7L395 -20Q385 -13 379 1Q362 41 344 68Q338 78 338 84L337 91Z" />
<glyph unicode="&#xeffd;" glyph-name="uniEFFD" horiz-adv-x="300" d="M0 0V100H100V0H0ZM200 0V100H300V0H200Z" />
<glyph unicode="&#xeffe;" glyph-name="uniEFFE" horiz-adv-x="300" d="M0 0V100H100V0H0ZM200 0V100H300V0H200Z" />
<glyph unicode="&#xefff;" glyph-name="uniEFFF" horiz-adv-x="100" d="M0 0V100H100V0H0Z" />
</font>
</defs>
</svg>
